Latest Movie :
Recent Movies
"If any link is broken, please comment below the post. We will replace the links when we find another good one."

Aranmanai (2014)(Tamil) - OST - ACDrip - 320Kbps - CBR - Mp3







Format                                   : MPEG Audio
File size                                : 14.0 MiB
Duration                                 : 5mn 59s
Overall bit rate mode                    : Constant
Overall bit rate                         : 320 Kbps
Album                                    : Aranmanai
Album/Performer                          : Annamalai, PA Vijay, Piraisoodan
Part/Position                            : 1
Part/Total                               : 1
Track name                               : 04.Unnaye Enniye (Unnaye Nambiye)
Track name/Position                      : 4
Performer                                : Ananthu/ Mukesh/ MLR Karthikeyan
Composer                                 : Bharadwaj
Genre                                    : SoundTrack
Recorded date                            : 2014
Writing library                          : LAME3.82
Cover                                    : Yes
Cover type                               : Cover (front)
Cover MIME                               : image/jpeg
Comment                                  : Rajj @ TMR

Audio
Format                                   : MPEG Audio
Format version                           : Version 1
Format profile                           : Layer 3
Duration                                 : 6mn 0s
Bit rate mode                            : Constant
Bit rate                                 : 320 Kbps
Channel(s)                               : 1 channel
Sampling rate                            : 44.1 KHz
Compression mode                         : Lossy
Stream size                              : 13.7 MiB (98%)
Writing library                          : LAME3.82

01.Katthi Parvakkari
Singer(s): Karthik/ Surmukhi

02.Petromaxu Lightethan
Singer(s): Harihara Sudhan/ Velmurugan

03.Sonnathu Sonnathu
Singer(s): Harini

04.Unnaye Enniye (Unnaye Nambiye)
Singer(s): Ananthu/ Mukesh/ MLR Karthikeyan

05.Peeche Peeche
Singer(s): MM Manasi/ MM Monissha/ Surmukhi





DownloaD

Salim (2014) HD - DVDScr - Rip - 720P - X264 - Ac3 - 800mb - TTT




INFO
Format                                   : Matroska
Format version                           : Version 2
File size                                : 798 MiB
Duration                                 : 2h 17mn
Overall bit rate                         : 813 Kbps


SCREENSHOTS 














DownloaD


http://filesflash.net/vam6qpkw

http://filestorm.to/3nqfap8si5d2.html

http://www.arabloads.net/s5i18gc0a49u/Salim.2014.720P.X264.Ac3.800mb.mkv.html

The Raid 2 (2014) 720p Blu-Ray x264 [Dual-Audio][English DD 5.1 + Hindi DD 5.1] - Mafiaking - TeamTNT







General

IMDB :
www.imdb.com/title/tt2265171/
IMDB Rating : 8.2 / 10.0
GENRE : Action | Crime | Thriller
Format : Matroska
Format version : Version 4 / Version 2
File size : 1.39 GiB
Duration : 2h 30mn
Overall bit rate : 1 318 Kbps
Encoded date : UTC 2014-08-29 06:38:35
Writing application : mkvmerge v7.0.0 ('Where We Going') 32bit built on Jun 9 2014 15:08:34
Writing library : libebml v1.3.0 + libmatroska v1.4.1


Video
ID : 1
Format : AVC
Format/Info : Advanced Video Codec
Format profile : [email protected]
Format settings, CABAC : Yes
Format settings, ReFrames : 4 frames
Codec ID : V_MPEG4/ISO/AVC
Duration : 2h 30mn
Bit rate : 900 Kbps
Width : 1 280 pixels
Height : 536 pixels
Display aspect ratio : 2.40:1
Frame rate mode : Constant
Frame rate : 23.976 fps
Color space : YUV
Chroma subsampling : 4:2:0
Bit depth : 8 bits
Scan type : Progressive
Bits/(Pixel*Frame) : 0.055
Stream size : 942 MiB (66%)
Title : Mafiaking
Writing library : x264 core 142 r2431 ac76440
Language : English
Default : Yes
Forced : No


Audio #1
ID : 2
Format : AC-3
Format/Info : Audio Coding 3
Mode extension : CM (complete main)
Format settings, Endianness : Big
Codec ID : A_AC3
Duration : 2h 30mn
Bit rate mode : Constant
Bit rate : 224 Kbps
Channel(s) : 6 channels
Channel positions : Front: L C R, Side: L R, LFE
Sampling rate : 48.0 KHz
Bit depth : 16 bits
Compression mode : Lossy
Stream size : 241 MiB (17%)
Title : Mafiaking
Language : Hindi
Default : Yes
Forced : No


Audio #2
ID : 3
Format : AC-3
Format/Info : Audio Coding 3
Mode extension : CM (complete main)
Format settings, Endianness : Big
Codec ID : A_AC3
Duration : 2h 30mn
Bit rate mode : Constant
Bit rate : 192 Kbps
Channel(s) : 6 channels
Channel positions : Front: L C R, Side: L R, LFE
Sampling rate : 48.0 KHz
Bit depth : 16 bits
Compression mode : Lossy
Stream size : 207 MiB (15%)
Title : Mafiaking
Language : English
Default : No
Forced : No




















Mardaani (2014) - 720p - DVDScr - XviD - Multi Subs - Team IcTv





Movie Info
Year : 2014
Cast : Rani Mukerji, Tahir Raj Bhasin, Sanjay Taneja
Genre : Action | Drama | Thriller
Runtime : 1hr 53min xx
Video: XVID
Audio : MP3
Subtitles : English - Arabic - Urdu - German
Resolution : 1280 x 544
Source : Team IcTv
                      

SINGLE DIRECT FAST LINKS
https://www.secureupload.eu/23a0b7ga49y4/Mardaani.2014.720P.New.DvDScr.Rip.XviD.Eng.Subs-Team.IcTv.Exclusive.avi
https://www.secureupload.eu/krx7t2feogio/Mardaani.2014.720P.New.DvDScr.Rip.XviD.Eng.Subs-Team.IcTv.Exclusive.rar
http://rapidgator.net/file/6baee1b45c41f902cb3dec42f18d11e8/Mardaani.2014.720P.New.DvDScr.Rip.XviD.Eng.Subs-Team.IcTv.Exclusive.avi.html
http://rapidgator.net/file/f267c203451de7913a45c1d1334adb53/Mardaani.2014.720P.New.DvDScr.Rip.XviD.Eng.Subs-Team.IcTv.Exclusive.rar.html
http://uploaded.net/file/x2igi1v5/Mardaani.2014.720P.New.DvDScr.Rip.XviD.Eng.Subs-Team.IcTv.Exclusive.avi
http://uploaded.net/file/88npufdk/Mardaani.2014.720P.New.DvDScr.Rip.XviD.Eng.Subs-Team.IcTv.Exclusive.rar

http://terafile.co/616a8678f305/Mardaani.2014.720P.New.DvDScr.Rip.XviD.Eng.Subs-Team.IcTv.Exclusive.avi
http://terafile.co/419c69235d2a/Mardaani.2014.720P.New.DvDScr.Rip.XviD.Eng.Subs-Team.IcTv.Exclusive.rar

Double Di Trouble (2014) -720p- DVDSCR -Rip-Punjabi-x264-AC3- Mafiaking-TeamTNT

 
General
Unique ID : 230934024093468114204093711731565394394 (0xADBC4674AEEA9B36AB547CF5EA2DF9DA)
Complete name : Double Di Trouble (2014) - 720p - DVDSCR-Rip - Punjabi - x264 - AC3 - Mafiaking - TeamTNT ExClusive.mkv
Format : Matroska
Format version : Version 4 / Version 2
File size : 810 MiB
Duration : 1h 49mn
Overall bit rate : 1 030 Kbps
Movie name : Double Di Trouble (2014) - 720p - DVDSCR-Rip - Punjabi - x264 - AC3 - Mafiaking - TeamTNT ExClusive
Encoded date : UTC 2014-08-31 14:07:46
Writing application : mkvmerge v7.0.0 ('Where We Going') 32bit built on Jun 9 2014 15:08:34
Writing library : libebml v1.3.0 + libmatroska v1.4.1

   
   
 
Support : © 2017. Free Movie Download For All
Template Created by Creating Website Published by Mas Template
Proudly powered by Blogger